Español Lo Med Hi
ffmpeg version N-64015-g92cccb7 Copyright (c) 2000-2014 the FFmpeg developers built on Jun 17 2014 09:05:09 with gcc 4.4.7 (GCC) 20120313 (Red Hat 4.4.7-4) configuration: --prefix=/root/ffmpeg_build --extra-cflags=-I/root/ffmpeg_build/include --extra-ldflags=-L/root/ffmpeg_build/lib --bindir=/usr/bin --extra-libs=-ldl --enable-version3 --enable-libopencore-amrnb --enable-libopencore-amrwb --enable-libvpx --enable-libfaac --enable-libmp3lame --enable-libtheora --enable-libvorbis --enable-libx264 --enable-libvo-aacenc --enable-libxvid --disable-ffplay --enable-gpl --enable-postproc --enable-nonfree --enable-avfilter --enable-pthreads WARNING: library configuration mismatch swscale configuration: --prefix=/root/ffmpeg_build --extra-cflags=-I/root/ffmpeg_build/include --extra-ldflags=-L/root/ffmpeg_build/lib --bindir=/root/bin --extra-libs=-ldl --enable-version3 --enable-libopencore-amrnb --enable-libopencore-amrwb --enable-libvpx --enable-libfaac --enable-libmp3lame --enable-libtheora --enable-libvorbis --enable-libx264 --enable-libvo-aacenc --enable-libxvid --disable-ffplay --enable-gpl --enable-postproc --enable-nonfree --enable-avfilter --enable-pthreads swresample configuration: --prefix=/root/ffmpeg_build --extra-cflags=-I/root/ffmpeg_build/include --extra-ldflags=-L/root/ffmpeg_build/lib --bindir=/root/bin --extra-libs=-ldl --enable-version3 --enable-libopencore-amrnb --enable-libopencore-amrwb --enable-libvpx --enable-libfaac --enable-libmp3lame --enable-libtheora --enable-libvorbis --enable-libx264 --enable-libvo-aacenc --enable-libxvid --disable-ffplay --enable-gpl --enable-postproc --enable-nonfree --enable-avfilter --enable-pthreads libavutil 52. 89.100 / 52. 89.100 libavcodec 55. 67.100 / 55. 67.100 libavformat 55. 43.100 / 55. 43.100 libavdevice 55. 13.101 / 55. 13.101 libavfilter 4. 8.100 / 4. 8.100 libswscale 2. 6.100 / 2. 6.100 libswresample 0. 19.100 / 0. 19.100 libpostproc 52. 3.100 / 52. 3.100 Trailing options were found on the commandline. Guessed Channel Layout for Input Stream #0.0 : stereo Input #0, s16le, from '/dev/zero': Duration: N/A, bitrate: 1536 kb/s Stream #0:0: Audio: pcm_s16le, 48000 Hz, 2 channels, s16, 1536 kb/s Input #1, mov,mp4,m4a,3gp,3g2,mj2, from '/home/finpic/public_html/mediahub/public/jobs/pack-1385404601738/intro_800x450.mp4': Metadata: major_brand : isom minor_version : 512 compatible_brands: isomiso2avc1mp41 encoder : Lavf55.16.101 Duration: 00:00:06.04, start: 0.000000, bitrate: 59 kb/s Stream #1:0(und): Video: h264 (High) (avc1 / 0x31637661), yuv420p, 800x450 [SAR 1:1 DAR 16:9], 55 kb/s, 29.97 fps, 29.97 tbr, 11988 tbn, 59.94 tbc (default) Metadata: handler_name : VideoHandler [libx264 @ 0x3e862a0] using SAR=1/1 [libx264 @ 0x3e862a0] using cpu capabilities: MMX2 SSE2Fast SSSE3 SSE4.2 AVX [libx264 @ 0x3e862a0] profile High, level 3.1 [libx264 @ 0x3e862a0] 264 - core 142 - H.264/MPEG-4 AVC codec - Copyleft 2003-2014 - http://www.videolan.org/x264.html - options: cabac=1 ref=3 deblock=1:0:0 analyse=0x3:0x113 me=hex subme=7 psy=1 psy_rd=1.00:0.00 mixed_ref=1 me_range=16 chroma_me=1 trellis=1 8x8dct=1 cqm=0 deadzone=21,11 fast_pskip=1 chroma_qp_offset=-2 threads=2 lookahead_threads=1 sliced_threads=0 nr=0 decimate=1 interlaced=0 bluray_compat=0 constrained_intra=0 bframes=3 b_pyramid=2 b_adapt=1 b_bias=0 direct=1 weightb=1 open_gop=0 weightp=2 keyint=250 keyint_min=25 scenecut=40 intra_refresh=0 rc_lookahead=40 rc=crf mbtree=1 crf=22.0 qcomp=0.60 qpmin=0 qpmax=69 qpstep=4 ip_ratio=1.40 aq=1:1.00 Output #0, mp4, to '/home/finpic/public_html/mediahub/public/jobs/pack-1385404601738/intro_800x450_s.mp4': Metadata: encoder : Lavf55.43.100 Stream #0:0(und): Video: h264 (libx264) ([33][0][0][0] / 0x0021), yuv420p, 800x450 [SAR 1:1 DAR 16:9], q=-1--1, 29.97 fps, 11988 tbn, 29.97 tbc (default) Metadata: handler_name : VideoHandler encoder : Lavc55.67.100 libx264 Stream #0:1: Audio: aac ([64][0][0][0] / 0x0040), 48000 Hz, stereo, fltp, 128 kb/s Metadata: encoder : Lavc55.67.100 aac Stream mapping: Stream #1:0 -> #0:0 (h264 (native) -> h264 (libx264)) Stream #0:0 -> #0:1 (pcm_s16le (native) -> aac (native)) Press [q] to stop, [?] for help frame= 181 fps=0.0 q=-1.0 Lsize= 52kB time=00:00:06.05 bitrate= 70.1kbits/s video:42kB audio:2kB subtitle:0kB other streams:0kB global headers:0kB muxing overhead: 17.308372% [libx264 @ 0x3e862a0] frame I:1 Avg QP: 9.14 size: 118 [libx264 @ 0x3e862a0] frame P:61 Avg QP:12.46 size: 597 [libx264 @ 0x3e862a0] frame B:119 Avg QP:13.24 size: 53 [libx264 @ 0x3e862a0] consecutive B-frames: 12.2% 0.0% 1.7% 86.2% [libx264 @ 0x3e862a0] mb I I16..4: 100.0% 0.0% 0.0% [libx264 @ 0x3e862a0] mb P I16..4: 0.1% 0.1% 0.1% P16..4: 2.8% 0.5% 0.2% 0.0% 0.0% skip:96.1% [libx264 @ 0x3e862a0] mb B I16..4: 0.0% 0.0% 0.0% B16..8: 1.4% 0.0% 0.0% direct: 0.0% skip:98.5% L0:50.0% L1:46.5% BI: 3.5% [libx264 @ 0x3e862a0] 8x8 transform intra:6.8% inter:37.9% [libx264 @ 0x3e862a0] coded y,uvDC,uvAC intra: 7.4% 12.6% 11.1% inter: 0.4% 0.6% 0.4% [libx264 @ 0x3e862a0] i16 v,h,dc,p: 93% 4% 4% 0% [libx264 @ 0x3e862a0] i8 v,h,dc,ddl,ddr,vr,hd,vl,hu: 7% 25% 64% 0% 0% 0% 1% 0% 2% [libx264 @ 0x3e862a0] i4 v,h,dc,ddl,ddr,vr,hd,vl,hu: 43% 14% 24% 2% 3% 3% 3% 6% 3% [libx264 @ 0x3e862a0] i8c dc,h,v,p: 90% 6% 4% 0% [libx264 @ 0x3e862a0] Weighted P-Frames: Y:0.0% UV:0.0% [libx264 @ 0x3e862a0] ref P L0: 65.1% 8.3% 14.1% 12.5% [libx264 @ 0x3e862a0] ref B L0: 73.2% 24.5% 2.3% [libx264 @ 0x3e862a0] ref B L1: 89.0% 11.0% [libx264 @ 0x3e862a0] kb/s:56.73 ffmpeg version N-64015-g92cccb7 Copyright (c) 2000-2014 the FFmpeg developers built on Jun 17 2014 09:05:09 with gcc 4.4.7 (GCC) 20120313 (Red Hat 4.4.7-4) configuration: --prefix=/root/ffmpeg_build --extra-cflags=-I/root/ffmpeg_build/include --extra-ldflags=-L/root/ffmpeg_build/lib --bindir=/usr/bin --extra-libs=-ldl --enable-version3 --enable-libopencore-amrnb --enable-libopencore-amrwb --enable-libvpx --enable-libfaac --enable-libmp3lame --enable-libtheora --enable-libvorbis --enable-libx264 --enable-libvo-aacenc --enable-libxvid --disable-ffplay --enable-gpl --enable-postproc --enable-nonfree --enable-avfilter --enable-pthreads WARNING: library configuration mismatch swscale configuration: --prefix=/root/ffmpeg_build --extra-cflags=-I/root/ffmpeg_build/include --extra-ldflags=-L/root/ffmpeg_build/lib --bindir=/root/bin --extra-libs=-ldl --enable-version3 --enable-libopencore-amrnb --enable-libopencore-amrwb --enable-libvpx --enable-libfaac --enable-libmp3lame --enable-libtheora --enable-libvorbis --enable-libx264 --enable-libvo-aacenc --enable-libxvid --disable-ffplay --enable-gpl --enable-postproc --enable-nonfree --enable-avfilter --enable-pthreads swresample configuration: --prefix=/root/ffmpeg_build --extra-cflags=-I/root/ffmpeg_build/include --extra-ldflags=-L/root/ffmpeg_build/lib --bindir=/root/bin --extra-libs=-ldl --enable-version3 --enable-libopencore-amrnb --enable-libopencore-amrwb --enable-libvpx --enable-libfaac --enable-libmp3lame --enable-libtheora --enable-libvorbis --enable-libx264 --enable-libvo-aacenc --enable-libxvid --disable-ffplay --enable-gpl --enable-postproc --enable-nonfree --enable-avfilter --enable-pthreads libavutil 52. 89.100 / 52. 89.100 libavcodec 55. 67.100 / 55. 67.100 libavformat 55. 43.100 / 55. 43.100 libavdevice 55. 13.101 / 55. 13.101 libavfilter 4. 8.100 / 4. 8.100 libswscale 2. 6.100 / 2. 6.100 libswresample 0. 19.100 / 0. 19.100 libpostproc 52. 3.100 / 52. 3.100 Trailing options were found on the commandline. Guessed Channel Layout for Input Stream #0.0 : stereo Input #0, s16le, from '/dev/zero': Duration: N/A, bitrate: 1536 kb/s Stream #0:0: Audio: pcm_s16le, 48000 Hz, 2 channels, s16, 1536 kb/s Input #1, mov,mp4,m4a,3gp,3g2,mj2, from '/home/finpic/public_html/mediahub/public/jobs/pack-1385404601738/intro.mp4': Metadata: major_brand : isom minor_version : 512 compatible_brands: isomiso2avc1mp41 encoder : Lavf55.16.101 Duration: 00:00:06.04, start: 0.000000, bitrate: 194 kb/s Stream #1:0(und): Video: h264 (High) (avc1 / 0x31637661), yuv420p, 1280x720 [SAR 1:1 DAR 16:9], 190 kb/s, 29.97 fps, 29.97 tbr, 11988 tbn, 59.94 tbc (default) Metadata: handler_name : VideoHandler [libx264 @ 0x2e0c280] using SAR=1/1 [libx264 @ 0x2e0c280] using cpu capabilities: MMX2 SSE2Fast SSSE3 SSE4.2 AVX [libx264 @ 0x2e0c280] profile High, level 3.1 [libx264 @ 0x2e0c280] 264 - core 142 - H.264/MPEG-4 AVC codec - Copyleft 2003-2014 - http://www.videolan.org/x264.html - options: cabac=1 ref=3 deblock=1:0:0 analyse=0x3:0x113 me=hex subme=7 psy=1 psy_rd=1.00:0.00 mixed_ref=1 me_range=16 chroma_me=1 trellis=1 8x8dct=1 cqm=0 deadzone=21,11 fast_pskip=1 chroma_qp_offset=-2 threads=2 lookahead_threads=1 sliced_threads=0 nr=0 decimate=1 interlaced=0 bluray_compat=0 constrained_intra=0 bframes=3 b_pyramid=2 b_adapt=1 b_bias=0 direct=1 weightb=1 open_gop=0 weightp=2 keyint=250 keyint_min=25 scenecut=40 intra_refresh=0 rc_lookahead=40 rc=crf mbtree=1 crf=22.0 qcomp=0.60 qpmin=0 qpmax=69 qpstep=4 ip_ratio=1.40 aq=1:1.00 Output #0, mp4, to '/home/finpic/public_html/mediahub/public/jobs/pack-1385404601738/intro_1280x720_s.mp4': Metadata: encoder : Lavf55.43.100 Stream #0:0(und): Video: h264 (libx264) ([33][0][0][0] / 0x0021), yuv420p, 1280x720 [SAR 1:1 DAR 16:9], q=-1--1, 29.97 fps, 11988 tbn, 29.97 tbc (default) Metadata: handler_name : VideoHandler encoder : Lavc55.67.100 libx264 Stream #0:1: Audio: aac ([64][0][0][0] / 0x0040), 48000 Hz, stereo, fltp, 128 kb/s Metadata: encoder : Lavc55.67.100 aac Stream mapping: Stream #1:0 -> #0:0 (h264 (native) -> h264 (libx264)) Stream #0:0 -> #0:1 (pcm_s16le (native) -> aac (native)) Press [q] to stop, [?] for help frame= 103 fps=0.0 q=28.0 size= 69kB time=00:00:01.83 bitrate= 310.1kbits/s frame= 181 fps=0.0 q=-1.0 Lsize= 117kB time=00:00:06.05 bitrate= 158.7kbits/s video:108kB audio:2kB subtitle:0kB other streams:0kB global headers:0kB muxing overhead: 7.013951% [libx264 @ 0x2e0c280] frame I:1 Avg QP: 9.34 size: 216 [libx264 @ 0x2e0c280] frame P:56 Avg QP:12.38 size: 1698 [libx264 @ 0x2e0c280] frame B:124 Avg QP:14.81 size: 117 [libx264 @ 0x2e0c280] consecutive B-frames: 8.3% 1.1% 0.0% 90.6% [libx264 @ 0x2e0c280] mb I I16..4: 100.0% 0.0% 0.0% [libx264 @ 0x2e0c280] mb P I16..4: 0.0% 0.2% 0.1% P16..4: 2.2% 0.5% 0.3% 0.0% 0.0% skip:96.6% [libx264 @ 0x2e0c280] mb B I16..4: 0.0% 0.0% 0.0% B16..8: 1.3% 0.1% 0.0% direct: 0.0% skip:98.6% L0:43.2% L1:47.9% BI: 8.9% [libx264 @ 0x2e0c280] 8x8 transform intra:11.8% inter:58.5% [libx264 @ 0x2e0c280] coded y,uvDC,uvAC intra: 7.5% 12.8% 12.6% inter: 0.4% 0.5% 0.3% [libx264 @ 0x2e0c280] i16 v,h,dc,p: 95% 3% 2% 0% [libx264 @ 0x2e0c280] i8 v,h,dc,ddl,ddr,vr,hd,vl,hu: 4% 30% 58% 0% 1% 1% 1% 1% 4% [libx264 @ 0x2e0c280] i4 v,h,dc,ddl,ddr,vr,hd,vl,hu: 17% 36% 23% 3% 3% 3% 4% 6% 5% [libx264 @ 0x2e0c280] i8c dc,h,v,p: 90% 6% 3% 1% [libx264 @ 0x2e0c280] Weighted P-Frames: Y:0.0% UV:0.0% [libx264 @ 0x2e0c280] ref P L0: 62.1% 9.3% 19.9% 8.7% [libx264 @ 0x2e0c280] ref B L0: 78.6% 17.6% 3.8% [libx264 @ 0x2e0c280] ref B L1: 91.3% 8.7% [libx264 @ 0x2e0c280] kb/s:145.58 ffmpeg version N-64015-g92cccb7 Copyright (c) 2000-2014 the FFmpeg developers built on Jun 17 2014 09:05:09 with gcc 4.4.7 (GCC) 20120313 (Red Hat 4.4.7-4) configuration: --prefix=/root/ffmpeg_build --extra-cflags=-I/root/ffmpeg_build/include --extra-ldflags=-L/root/ffmpeg_build/lib --bindir=/usr/bin --extra-libs=-ldl --enable-version3 --enable-libopencore-amrnb --enable-libopencore-amrwb --enable-libvpx --enable-libfaac --enable-libmp3lame --enable-libtheora --enable-libvorbis --enable-libx264 --enable-libvo-aacenc --enable-libxvid --disable-ffplay --enable-gpl --enable-postproc --enable-nonfree --enable-avfilter --enable-pthreads WARNING: library configuration mismatch swscale configuration: --prefix=/root/ffmpeg_build --extra-cflags=-I/root/ffmpeg_build/include --extra-ldflags=-L/root/ffmpeg_build/lib --bindir=/root/bin --extra-libs=-ldl --enable-version3 --enable-libopencore-amrnb --enable-libopencore-amrwb --enable-libvpx --enable-libfaac --enable-libmp3lame --enable-libtheora --enable-libvorbis --enable-libx264 --enable-libvo-aacenc --enable-libxvid --disable-ffplay --enable-gpl --enable-postproc --enable-nonfree --enable-avfilter --enable-pthreads swresample configuration: --prefix=/root/ffmpeg_build --extra-cflags=-I/root/ffmpeg_build/include --extra-ldflags=-L/root/ffmpeg_build/lib --bindir=/root/bin --extra-libs=-ldl --enable-version3 --enable-libopencore-amrnb --enable-libopencore-amrwb --enable-libvpx --enable-libfaac --enable-libmp3lame --enable-libtheora --enable-libvorbis --enable-libx264 --enable-libvo-aacenc --enable-libxvid --disable-ffplay --enable-gpl --enable-postproc --enable-nonfree --enable-avfilter --enable-pthreads libavutil 52. 89.100 / 52. 89.100 libavcodec 55. 67.100 / 55. 67.100 libavformat 55. 43.100 / 55. 43.100 libavdevice 55. 13.101 / 55. 13.101 libavfilter 4. 8.100 / 4. 8.100 libswscale 2. 6.100 / 2. 6.100 libswresample 0. 19.100 / 0. 19.100 libpostproc 52. 3.100 / 52. 3.100 Trailing options were found on the commandline. Guessed Channel Layout for Input Stream #0.0 : stereo Input #0, s16le, from '/dev/zero': Duration: N/A, bitrate: 1536 kb/s Stream #0:0: Audio: pcm_s16le, 48000 Hz, 2 channels, s16, 1536 kb/s Input #1, mov,mp4,m4a,3gp,3g2,mj2, from '/home/finpic/public_html/mediahub/public/jobs/pack-1385404601738/intro_640x360.mp4': Metadata: major_brand : isom minor_version : 512 compatible_brands: isomiso2avc1mp41 encoder : Lavf55.16.101 Duration: 00:00:06.04, start: 0.000000, bitrate: 51 kb/s Stream #1:0(und): Video: h264 (High) (avc1 / 0x31637661), yuv420p, 640x360 [SAR 1:1 DAR 16:9], 47 kb/s, 29.97 fps, 29.97 tbr, 11988 tbn, 59.94 tbc (default) Metadata: handler_name : VideoHandler [libx264 @ 0x2727480] using SAR=1/1 [libx264 @ 0x2727480] using cpu capabilities: MMX2 SSE2Fast SSSE3 SSE4.2 AVX [libx264 @ 0x2727480] profile High, level 3.0 [libx264 @ 0x2727480] 264 - core 142 - H.264/MPEG-4 AVC codec - Copyleft 2003-2014 - http://www.videolan.org/x264.html - options: cabac=1 ref=3 deblock=1:0:0 analyse=0x3:0x113 me=hex subme=7 psy=1 psy_rd=1.00:0.00 mixed_ref=1 me_range=16 chroma_me=1 trellis=1 8x8dct=1 cqm=0 deadzone=21,11 fast_pskip=1 chroma_qp_offset=-2 threads=2 lookahead_threads=1 sliced_threads=0 nr=0 decimate=1 interlaced=0 bluray_compat=0 constrained_intra=0 bframes=3 b_pyramid=2 b_adapt=1 b_bias=0 direct=1 weightb=1 open_gop=0 weightp=2 keyint=250 keyint_min=25 scenecut=40 intra_refresh=0 rc_lookahead=40 rc=crf mbtree=1 crf=22.0 qcomp=0.60 qpmin=0 qpmax=69 qpstep=4 ip_ratio=1.40 aq=1:1.00 Output #0, mp4, to '/home/finpic/public_html/mediahub/public/jobs/pack-1385404601738/intro_640x360_s.mp4': Metadata: encoder : Lavf55.43.100 Stream #0:0(und): Video: h264 (libx264) ([33][0][0][0] / 0x0021), yuv420p, 640x360 [SAR 1:1 DAR 16:9], q=-1--1, 29.97 fps, 11988 tbn, 29.97 tbc (default) Metadata: handler_name : VideoHandler encoder : Lavc55.67.100 libx264 Stream #0:1: Audio: aac ([64][0][0][0] / 0x0040), 48000 Hz, stereo, fltp, 128 kb/s Metadata: encoder : Lavc55.67.100 aac Stream mapping: Stream #1:0 -> #0:0 (h264 (native) -> h264 (libx264)) Stream #0:0 -> #0:1 (pcm_s16le (native) -> aac (native)) Press [q] to stop, [?] for help frame= 181 fps=0.0 q=-1.0 Lsize= 43kB time=00:00:06.05 bitrate= 57.9kbits/s video:33kB audio:2kB subtitle:0kB other streams:0kB global headers:0kB muxing overhead: 21.974504% [libx264 @ 0x2727480] frame I:1 Avg QP: 8.80 size: 95 [libx264 @ 0x2727480] frame P:54 Avg QP:12.57 size: 510 [libx264 @ 0x2727480] frame B:126 Avg QP:13.50 size: 46 [libx264 @ 0x2727480] consecutive B-frames: 6.6% 1.1% 1.7% 90.6% [libx264 @ 0x2727480] mb I I16..4: 100.0% 0.0% 0.0% [libx264 @ 0x2727480] mb P I16..4: 0.2% 0.1% 0.2% P16..4: 2.7% 0.6% 0.4% 0.0% 0.0% skip:95.9% [libx264 @ 0x2727480] mb B I16..4: 0.0% 0.0% 0.0% B16..8: 1.7% 0.1% 0.0% direct: 0.0% skip:98.1% L0:48.0% L1:47.3% BI: 4.7% [libx264 @ 0x2727480] 8x8 transform intra:4.8% inter:39.4% [libx264 @ 0x2727480] coded y,uvDC,uvAC intra: 8.5% 13.0% 12.5% inter: 0.5% 0.6% 0.4% [libx264 @ 0x2727480] i16 v,h,dc,p: 90% 6% 4% 0% [libx264 @ 0x2727480] i8 v,h,dc,ddl,ddr,vr,hd,vl,hu: 3% 16% 78% 0% 1% 0% 0% 0% 1% [libx264 @ 0x2727480] i4 v,h,dc,ddl,ddr,vr,hd,vl,hu: 36% 17% 29% 1% 3% 2% 3% 4% 4% [libx264 @ 0x2727480] i8c dc,h,v,p: 88% 10% 1% 1% [libx264 @ 0x2727480] Weighted P-Frames: Y:1.9% UV:0.0% [libx264 @ 0x2727480] ref P L0: 72.1% 7.1% 10.6% 10.2% [libx264 @ 0x2727480] ref B L0: 73.4% 19.8% 6.8% [libx264 @ 0x2727480] ref B L1: 91.7% 8.3% [libx264 @ 0x2727480] kb/s:44.39