Español Lo Med Hi
ffmpeg version N-64015-g92cccb7 Copyright (c) 2000-2014 the FFmpeg developers built on Jun 17 2014 09:05:09 with gcc 4.4.7 (GCC) 20120313 (Red Hat 4.4.7-4) configuration: --prefix=/root/ffmpeg_build --extra-cflags=-I/root/ffmpeg_build/include --extra-ldflags=-L/root/ffmpeg_build/lib --bindir=/usr/bin --extra-libs=-ldl --enable-version3 --enable-libopencore-amrnb --enable-libopencore-amrwb --enable-libvpx --enable-libfaac --enable-libmp3lame --enable-libtheora --enable-libvorbis --enable-libx264 --enable-libvo-aacenc --enable-libxvid --disable-ffplay --enable-gpl --enable-postproc --enable-nonfree --enable-avfilter --enable-pthreads WARNING: library configuration mismatch swscale configuration: --prefix=/root/ffmpeg_build --extra-cflags=-I/root/ffmpeg_build/include --extra-ldflags=-L/root/ffmpeg_build/lib --bindir=/root/bin --extra-libs=-ldl --enable-version3 --enable-libopencore-amrnb --enable-libopencore-amrwb --enable-libvpx --enable-libfaac --enable-libmp3lame --enable-libtheora --enable-libvorbis --enable-libx264 --enable-libvo-aacenc --enable-libxvid --disable-ffplay --enable-gpl --enable-postproc --enable-nonfree --enable-avfilter --enable-pthreads swresample configuration: --prefix=/root/ffmpeg_build --extra-cflags=-I/root/ffmpeg_build/include --extra-ldflags=-L/root/ffmpeg_build/lib --bindir=/root/bin --extra-libs=-ldl --enable-version3 --enable-libopencore-amrnb --enable-libopencore-amrwb --enable-libvpx --enable-libfaac --enable-libmp3lame --enable-libtheora --enable-libvorbis --enable-libx264 --enable-libvo-aacenc --enable-libxvid --disable-ffplay --enable-gpl --enable-postproc --enable-nonfree --enable-avfilter --enable-pthreads libavutil 52. 89.100 / 52. 89.100 libavcodec 55. 67.100 / 55. 67.100 libavformat 55. 43.100 / 55. 43.100 libavdevice 55. 13.101 / 55. 13.101 libavfilter 4. 8.100 / 4. 8.100 libswscale 2. 6.100 / 2. 6.100 libswresample 0. 19.100 / 0. 19.100 libpostproc 52. 3.100 / 52. 3.100 Trailing options were found on the commandline. Guessed Channel Layout for Input Stream #0.0 : stereo Input #0, s16le, from '/dev/zero': Duration: N/A, bitrate: 1536 kb/s Stream #0:0: Audio: pcm_s16le, 48000 Hz, 2 channels, s16, 1536 kb/s Input #1, mov,mp4,m4a,3gp,3g2,mj2, from '/home/finpic/public_html/mediahub/public/jobs/pack-1391117218526/intro_800x450.mp4': Metadata: major_brand : isom minor_version : 512 compatible_brands: isomiso2avc1mp41 encoder : Lavf55.16.101 Duration: 00:00:05.31, start: 0.000000, bitrate: 107 kb/s Stream #1:0(und): Video: h264 (High) (avc1 / 0x31637661), yuv420p, 800x450 [SAR 1:1 DAR 16:9], 104 kb/s, 29.97 fps, 29.97 tbr, 11988 tbn, 59.94 tbc (default) Metadata: handler_name : VideoHandler [libx264 @ 0x22b0e00] using SAR=1/1 [libx264 @ 0x22b0e00] using cpu capabilities: MMX2 SSE2Fast SSSE3 SSE4.2 AVX [libx264 @ 0x22b0e00] profile High, level 3.1 [libx264 @ 0x22b0e00] 264 - core 142 - H.264/MPEG-4 AVC codec - Copyleft 2003-2014 - http://www.videolan.org/x264.html - options: cabac=1 ref=3 deblock=1:0:0 analyse=0x3:0x113 me=hex subme=7 psy=1 psy_rd=1.00:0.00 mixed_ref=1 me_range=16 chroma_me=1 trellis=1 8x8dct=1 cqm=0 deadzone=21,11 fast_pskip=1 chroma_qp_offset=-2 threads=2 lookahead_threads=1 sliced_threads=0 nr=0 decimate=1 interlaced=0 bluray_compat=0 constrained_intra=0 bframes=3 b_pyramid=2 b_adapt=1 b_bias=0 direct=1 weightb=1 open_gop=0 weightp=2 keyint=250 keyint_min=25 scenecut=40 intra_refresh=0 rc_lookahead=40 rc=crf mbtree=1 crf=22.0 qcomp=0.60 qpmin=0 qpmax=69 qpstep=4 ip_ratio=1.40 aq=1:1.00 Output #0, mp4, to '/home/finpic/public_html/mediahub/public/jobs/pack-1391117218526/intro_800x450_s.mp4': Metadata: encoder : Lavf55.43.100 Stream #0:0(und): Video: h264 (libx264) ([33][0][0][0] / 0x0021), yuv420p, 800x450 [SAR 1:1 DAR 16:9], q=-1--1, 29.97 fps, 11988 tbn, 29.97 tbc (default) Metadata: handler_name : VideoHandler encoder : Lavc55.67.100 libx264 Stream #0:1: Audio: aac ([64][0][0][0] / 0x0040), 48000 Hz, stereo, fltp, 128 kb/s Metadata: encoder : Lavc55.67.100 aac Stream mapping: Stream #1:0 -> #0:0 (h264 (native) -> h264 (libx264)) Stream #0:0 -> #0:1 (pcm_s16le (native) -> aac (native)) Press [q] to stop, [?] for help frame= 159 fps=0.0 q=-1.0 Lsize= 79kB time=00:00:05.31 bitrate= 122.5kbits/s video:71kB audio:1kB subtitle:0kB other streams:0kB global headers:0kB muxing overhead: 9.121033% [libx264 @ 0x22b0e00] frame I:1 Avg QP: 9.00 size: 118 [libx264 @ 0x22b0e00] frame P:73 Avg QP:16.40 size: 933 [libx264 @ 0x22b0e00] frame B:85 Avg QP:13.71 size: 49 [libx264 @ 0x22b0e00] consecutive B-frames: 28.3% 1.3% 0.0% 70.4% [libx264 @ 0x22b0e00] mb I I16..4: 100.0% 0.0% 0.0% [libx264 @ 0x22b0e00] mb P I16..4: 2.1% 3.6% 0.2% P16..4: 7.0% 1.5% 0.4% 0.0% 0.0% skip:85.3% [libx264 @ 0x22b0e00] mb B I16..4: 0.0% 0.0% 0.0% B16..8: 0.4% 0.0% 0.0% direct: 0.0% skip:99.5% L0:66.7% L1:31.0% BI: 2.3% [libx264 @ 0x22b0e00] 8x8 transform intra:49.2% inter:77.3% [libx264 @ 0x22b0e00] coded y,uvDC,uvAC intra: 11.9% 18.8% 3.6% inter: 1.2% 1.0% 0.1% [libx264 @ 0x22b0e00] i16 v,h,dc,p: 77% 18% 2% 3% [libx264 @ 0x22b0e00] i8 v,h,dc,ddl,ddr,vr,hd,vl,hu: 29% 25% 31% 2% 5% 3% 3% 1% 2% [libx264 @ 0x22b0e00] i4 v,h,dc,ddl,ddr,vr,hd,vl,hu: 29% 27% 26% 2% 6% 3% 3% 2% 3% [libx264 @ 0x22b0e00] i8c dc,h,v,p: 72% 14% 13% 1% [libx264 @ 0x22b0e00] Weighted P-Frames: Y:20.5% UV:16.4% [libx264 @ 0x22b0e00] ref P L0: 80.4% 8.0% 9.3% 1.7% 0.5% [libx264 @ 0x22b0e00] ref B L0: 40.8% 58.3% 0.8% [libx264 @ 0x22b0e00] ref B L1: 99.7% 0.3% [libx264 @ 0x22b0e00] kb/s:109.10 ffmpeg version N-64015-g92cccb7 Copyright (c) 2000-2014 the FFmpeg developers built on Jun 17 2014 09:05:09 with gcc 4.4.7 (GCC) 20120313 (Red Hat 4.4.7-4) configuration: --prefix=/root/ffmpeg_build --extra-cflags=-I/root/ffmpeg_build/include --extra-ldflags=-L/root/ffmpeg_build/lib --bindir=/usr/bin --extra-libs=-ldl --enable-version3 --enable-libopencore-amrnb --enable-libopencore-amrwb --enable-libvpx --enable-libfaac --enable-libmp3lame --enable-libtheora --enable-libvorbis --enable-libx264 --enable-libvo-aacenc --enable-libxvid --disable-ffplay --enable-gpl --enable-postproc --enable-nonfree --enable-avfilter --enable-pthreads WARNING: library configuration mismatch swscale configuration: --prefix=/root/ffmpeg_build --extra-cflags=-I/root/ffmpeg_build/include --extra-ldflags=-L/root/ffmpeg_build/lib --bindir=/root/bin --extra-libs=-ldl --enable-version3 --enable-libopencore-amrnb --enable-libopencore-amrwb --enable-libvpx --enable-libfaac --enable-libmp3lame --enable-libtheora --enable-libvorbis --enable-libx264 --enable-libvo-aacenc --enable-libxvid --disable-ffplay --enable-gpl --enable-postproc --enable-nonfree --enable-avfilter --enable-pthreads swresample configuration: --prefix=/root/ffmpeg_build --extra-cflags=-I/root/ffmpeg_build/include --extra-ldflags=-L/root/ffmpeg_build/lib --bindir=/root/bin --extra-libs=-ldl --enable-version3 --enable-libopencore-amrnb --enable-libopencore-amrwb --enable-libvpx --enable-libfaac --enable-libmp3lame --enable-libtheora --enable-libvorbis --enable-libx264 --enable-libvo-aacenc --enable-libxvid --disable-ffplay --enable-gpl --enable-postproc --enable-nonfree --enable-avfilter --enable-pthreads libavutil 52. 89.100 / 52. 89.100 libavcodec 55. 67.100 / 55. 67.100 libavformat 55. 43.100 / 55. 43.100 libavdevice 55. 13.101 / 55. 13.101 libavfilter 4. 8.100 / 4. 8.100 libswscale 2. 6.100 / 2. 6.100 libswresample 0. 19.100 / 0. 19.100 libpostproc 52. 3.100 / 52. 3.100 Trailing options were found on the commandline. Guessed Channel Layout for Input Stream #0.0 : stereo Input #0, s16le, from '/dev/zero': Duration: N/A, bitrate: 1536 kb/s Stream #0:0: Audio: pcm_s16le, 48000 Hz, 2 channels, s16, 1536 kb/s Input #1, mov,mp4,m4a,3gp,3g2,mj2, from '/home/finpic/public_html/mediahub/public/jobs/pack-1391117218526/intro.mp4': Metadata: major_brand : isom minor_version : 512 compatible_brands: isomiso2avc1mp41 encoder : Lavf55.16.101 Duration: 00:00:05.31, start: 0.000000, bitrate: 219 kb/s Stream #1:0(und): Video: h264 (High) (avc1 / 0x31637661), yuv420p, 1280x720 [SAR 1:1 DAR 16:9], 216 kb/s, 29.97 fps, 29.97 tbr, 11988 tbn, 59.94 tbc (default) Metadata: handler_name : VideoHandler [libx264 @ 0x2a66fe0] using SAR=1/1 [libx264 @ 0x2a66fe0] using cpu capabilities: MMX2 SSE2Fast SSSE3 SSE4.2 AVX [libx264 @ 0x2a66fe0] profile High, level 3.1 [libx264 @ 0x2a66fe0] 264 - core 142 - H.264/MPEG-4 AVC codec - Copyleft 2003-2014 - http://www.videolan.org/x264.html - options: cabac=1 ref=3 deblock=1:0:0 analyse=0x3:0x113 me=hex subme=7 psy=1 psy_rd=1.00:0.00 mixed_ref=1 me_range=16 chroma_me=1 trellis=1 8x8dct=1 cqm=0 deadzone=21,11 fast_pskip=1 chroma_qp_offset=-2 threads=2 lookahead_threads=1 sliced_threads=0 nr=0 decimate=1 interlaced=0 bluray_compat=0 constrained_intra=0 bframes=3 b_pyramid=2 b_adapt=1 b_bias=0 direct=1 weightb=1 open_gop=0 weightp=2 keyint=250 keyint_min=25 scenecut=40 intra_refresh=0 rc_lookahead=40 rc=crf mbtree=1 crf=22.0 qcomp=0.60 qpmin=0 qpmax=69 qpstep=4 ip_ratio=1.40 aq=1:1.00 Output #0, mp4, to '/home/finpic/public_html/mediahub/public/jobs/pack-1391117218526/intro_1280x720_s.mp4': Metadata: encoder : Lavf55.43.100 Stream #0:0(und): Video: h264 (libx264) ([33][0][0][0] / 0x0021), yuv420p, 1280x720 [SAR 1:1 DAR 16:9], q=-1--1, 29.97 fps, 11988 tbn, 29.97 tbc (default) Metadata: handler_name : VideoHandler encoder : Lavc55.67.100 libx264 Stream #0:1: Audio: aac ([64][0][0][0] / 0x0040), 48000 Hz, stereo, fltp, 128 kb/s Metadata: encoder : Lavc55.67.100 aac Stream mapping: Stream #1:0 -> #0:0 (h264 (native) -> h264 (libx264)) Stream #0:0 -> #0:1 (pcm_s16le (native) -> aac (native)) Press [q] to stop, [?] for help frame= 100 fps=0.0 q=28.0 size= 60kB time=00:00:01.73 bitrate= 284.2kbits/s frame= 136 fps=132 q=28.0 size= 135kB time=00:00:02.93 bitrate= 376.4kbits/s frame= 159 fps=129 q=-1.0 Lsize= 145kB time=00:00:05.31 bitrate= 224.3kbits/s video:137kB audio:1kB subtitle:0kB other streams:0kB global headers:0kB muxing overhead: 4.788810% [libx264 @ 0x2a66fe0] frame I:1 Avg QP: 9.00 size: 215 [libx264 @ 0x2a66fe0] frame P:73 Avg QP:16.19 size: 1791 [libx264 @ 0x2a66fe0] frame B:85 Avg QP:13.82 size: 105 [libx264 @ 0x2a66fe0] consecutive B-frames: 28.3% 1.3% 0.0% 70.4% [libx264 @ 0x2a66fe0] mb I I16..4: 100.0% 0.0% 0.0% [libx264 @ 0x2a66fe0] mb P I16..4: 2.1% 4.7% 0.2% P16..4: 5.1% 0.9% 0.2% 0.0% 0.0% skip:86.9% [libx264 @ 0x2a66fe0] mb B I16..4: 0.0% 0.0% 0.0% B16..8: 0.3% 0.0% 0.0% direct: 0.1% skip:99.6% L0:63.4% L1:33.6% BI: 3.0% [libx264 @ 0x2a66fe0] 8x8 transform intra:56.4% inter:84.6% [libx264 @ 0x2a66fe0] coded y,uvDC,uvAC intra: 14.7% 21.6% 4.1% inter: 0.8% 0.6% 0.1% [libx264 @ 0x2a66fe0] i16 v,h,dc,p: 72% 22% 2% 4% [libx264 @ 0x2a66fe0] i8 v,h,dc,ddl,ddr,vr,hd,vl,hu: 42% 20% 24% 2% 5% 2% 3% 2% 1% [libx264 @ 0x2a66fe0] i4 v,h,dc,ddl,ddr,vr,hd,vl,hu: 36% 25% 14% 2% 7% 4% 6% 3% 3% [libx264 @ 0x2a66fe0] i8c dc,h,v,p: 64% 17% 18% 1% [libx264 @ 0x2a66fe0] Weighted P-Frames: Y:13.7% UV:11.0% [libx264 @ 0x2a66fe0] ref P L0: 80.3% 9.4% 8.3% 1.7% 0.4% [libx264 @ 0x2a66fe0] ref B L0: 32.1% 67.4% 0.5% [libx264 @ 0x2a66fe0] kb/s:211.01 ffmpeg version N-64015-g92cccb7 Copyright (c) 2000-2014 the FFmpeg developers built on Jun 17 2014 09:05:09 with gcc 4.4.7 (GCC) 20120313 (Red Hat 4.4.7-4) configuration: --prefix=/root/ffmpeg_build --extra-cflags=-I/root/ffmpeg_build/include --extra-ldflags=-L/root/ffmpeg_build/lib --bindir=/usr/bin --extra-libs=-ldl --enable-version3 --enable-libopencore-amrnb --enable-libopencore-amrwb --enable-libvpx --enable-libfaac --enable-libmp3lame --enable-libtheora --enable-libvorbis --enable-libx264 --enable-libvo-aacenc --enable-libxvid --disable-ffplay --enable-gpl --enable-postproc --enable-nonfree --enable-avfilter --enable-pthreads WARNING: library configuration mismatch swscale configuration: --prefix=/root/ffmpeg_build --extra-cflags=-I/root/ffmpeg_build/include --extra-ldflags=-L/root/ffmpeg_build/lib --bindir=/root/bin --extra-libs=-ldl --enable-version3 --enable-libopencore-amrnb --enable-libopencore-amrwb --enable-libvpx --enable-libfaac --enable-libmp3lame --enable-libtheora --enable-libvorbis --enable-libx264 --enable-libvo-aacenc --enable-libxvid --disable-ffplay --enable-gpl --enable-postproc --enable-nonfree --enable-avfilter --enable-pthreads swresample configuration: --prefix=/root/ffmpeg_build --extra-cflags=-I/root/ffmpeg_build/include --extra-ldflags=-L/root/ffmpeg_build/lib --bindir=/root/bin --extra-libs=-ldl --enable-version3 --enable-libopencore-amrnb --enable-libopencore-amrwb --enable-libvpx --enable-libfaac --enable-libmp3lame --enable-libtheora --enable-libvorbis --enable-libx264 --enable-libvo-aacenc --enable-libxvid --disable-ffplay --enable-gpl --enable-postproc --enable-nonfree --enable-avfilter --enable-pthreads libavutil 52. 89.100 / 52. 89.100 libavcodec 55. 67.100 / 55. 67.100 libavformat 55. 43.100 / 55. 43.100 libavdevice 55. 13.101 / 55. 13.101 libavfilter 4. 8.100 / 4. 8.100 libswscale 2. 6.100 / 2. 6.100 libswresample 0. 19.100 / 0. 19.100 libpostproc 52. 3.100 / 52. 3.100 Trailing options were found on the commandline. Guessed Channel Layout for Input Stream #0.0 : stereo Input #0, s16le, from '/dev/zero': Duration: N/A, bitrate: 1536 kb/s Stream #0:0: Audio: pcm_s16le, 48000 Hz, 2 channels, s16, 1536 kb/s Input #1, mov,mp4,m4a,3gp,3g2,mj2, from '/home/finpic/public_html/mediahub/public/jobs/pack-1391117218526/intro_640x360.mp4': Metadata: major_brand : isom minor_version : 512 compatible_brands: isomiso2avc1mp41 encoder : Lavf55.16.101 Duration: 00:00:05.31, start: 0.000000, bitrate: 80 kb/s Stream #1:0(und): Video: h264 (High) (avc1 / 0x31637661), yuv420p, 640x360 [SAR 1:1 DAR 16:9], 77 kb/s, 29.97 fps, 29.97 tbr, 11988 tbn, 59.94 tbc (default) Metadata: handler_name : VideoHandler [libx264 @ 0x2616060] using SAR=1/1 [libx264 @ 0x2616060] using cpu capabilities: MMX2 SSE2Fast SSSE3 SSE4.2 AVX [libx264 @ 0x2616060] profile High, level 3.0 [libx264 @ 0x2616060] 264 - core 142 - H.264/MPEG-4 AVC codec - Copyleft 2003-2014 - http://www.videolan.org/x264.html - options: cabac=1 ref=3 deblock=1:0:0 analyse=0x3:0x113 me=hex subme=7 psy=1 psy_rd=1.00:0.00 mixed_ref=1 me_range=16 chroma_me=1 trellis=1 8x8dct=1 cqm=0 deadzone=21,11 fast_pskip=1 chroma_qp_offset=-2 threads=2 lookahead_threads=1 sliced_threads=0 nr=0 decimate=1 interlaced=0 bluray_compat=0 constrained_intra=0 bframes=3 b_pyramid=2 b_adapt=1 b_bias=0 direct=1 weightb=1 open_gop=0 weightp=2 keyint=250 keyint_min=25 scenecut=40 intra_refresh=0 rc_lookahead=40 rc=crf mbtree=1 crf=22.0 qcomp=0.60 qpmin=0 qpmax=69 qpstep=4 ip_ratio=1.40 aq=1:1.00 Output #0, mp4, to '/home/finpic/public_html/mediahub/public/jobs/pack-1391117218526/intro_640x360_s.mp4': Metadata: encoder : Lavf55.43.100 Stream #0:0(und): Video: h264 (libx264) ([33][0][0][0] / 0x0021), yuv420p, 640x360 [SAR 1:1 DAR 16:9], q=-1--1, 29.97 fps, 11988 tbn, 29.97 tbc (default) Metadata: handler_name : VideoHandler encoder : Lavc55.67.100 libx264 Stream #0:1: Audio: aac ([64][0][0][0] / 0x0040), 48000 Hz, stereo, fltp, 128 kb/s Metadata: encoder : Lavc55.67.100 aac Stream mapping: Stream #1:0 -> #0:0 (h264 (native) -> h264 (libx264)) Stream #0:0 -> #0:1 (pcm_s16le (native) -> aac (native)) Press [q] to stop, [?] for help frame= 159 fps=0.0 q=-1.0 Lsize= 61kB time=00:00:05.31 bitrate= 93.9kbits/s video:53kB audio:1kB subtitle:0kB other streams:0kB global headers:0kB muxing overhead: 12.262214% [libx264 @ 0x2616060] frame I:1 Avg QP: 9.00 size: 94 [libx264 @ 0x2616060] frame P:73 Avg QP:16.44 size: 680 [libx264 @ 0x2616060] frame B:85 Avg QP:13.68 size: 42 [libx264 @ 0x2616060] consecutive B-frames: 28.3% 1.3% 0.0% 70.4% [libx264 @ 0x2616060] mb I I16..4: 100.0% 0.0% 0.0% [libx264 @ 0x2616060] mb P I16..4: 2.9% 4.6% 0.3% P16..4: 7.8% 1.9% 0.6% 0.0% 0.0% skip:82.0% [libx264 @ 0x2616060] mb B I16..4: 0.0% 0.0% 0.0% B16..8: 0.4% 0.0% 0.0% direct: 0.0% skip:99.5% L0:66.7% L1:29.1% BI: 4.3% [libx264 @ 0x2616060] 8x8 transform intra:50.3% inter:76.3% [libx264 @ 0x2616060] coded y,uvDC,uvAC intra: 9.2% 13.7% 2.7% inter: 1.4% 1.4% 0.1% [libx264 @ 0x2616060] i16 v,h,dc,p: 81% 15% 2% 1% [libx264 @ 0x2616060] i8 v,h,dc,ddl,ddr,vr,hd,vl,hu: 20% 33% 38% 1% 3% 2% 1% 1% 1% [libx264 @ 0x2616060] i4 v,h,dc,ddl,ddr,vr,hd,vl,hu: 32% 26% 28% 1% 4% 2% 3% 2% 3% [libx264 @ 0x2616060] i8c dc,h,v,p: 79% 11% 9% 0% [libx264 @ 0x2616060] Weighted P-Frames: Y:28.8% UV:21.9% [libx264 @ 0x2616060] ref P L0: 76.2% 8.0% 13.0% 2.0% 0.8% [libx264 @ 0x2616060] ref B L0: 55.2% 43.6% 1.2% [libx264 @ 0x2616060] kb/s:80.40