Español Lo Med Hi
ffmpeg version N-64015-g92cccb7 Copyright (c) 2000-2014 the FFmpeg developers built on Jun 17 2014 09:05:09 with gcc 4.4.7 (GCC) 20120313 (Red Hat 4.4.7-4) configuration: --prefix=/root/ffmpeg_build --extra-cflags=-I/root/ffmpeg_build/include --extra-ldflags=-L/root/ffmpeg_build/lib --bindir=/usr/bin --extra-libs=-ldl --enable-version3 --enable-libopencore-amrnb --enable-libopencore-amrwb --enable-libvpx --enable-libfaac --enable-libmp3lame --enable-libtheora --enable-libvorbis --enable-libx264 --enable-libvo-aacenc --enable-libxvid --disable-ffplay --enable-gpl --enable-postproc --enable-nonfree --enable-avfilter --enable-pthreads WARNING: library configuration mismatch swscale configuration: --prefix=/root/ffmpeg_build --extra-cflags=-I/root/ffmpeg_build/include --extra-ldflags=-L/root/ffmpeg_build/lib --bindir=/root/bin --extra-libs=-ldl --enable-version3 --enable-libopencore-amrnb --enable-libopencore-amrwb --enable-libvpx --enable-libfaac --enable-libmp3lame --enable-libtheora --enable-libvorbis --enable-libx264 --enable-libvo-aacenc --enable-libxvid --disable-ffplay --enable-gpl --enable-postproc --enable-nonfree --enable-avfilter --enable-pthreads swresample configuration: --prefix=/root/ffmpeg_build --extra-cflags=-I/root/ffmpeg_build/include --extra-ldflags=-L/root/ffmpeg_build/lib --bindir=/root/bin --extra-libs=-ldl --enable-version3 --enable-libopencore-amrnb --enable-libopencore-amrwb --enable-libvpx --enable-libfaac --enable-libmp3lame --enable-libtheora --enable-libvorbis --enable-libx264 --enable-libvo-aacenc --enable-libxvid --disable-ffplay --enable-gpl --enable-postproc --enable-nonfree --enable-avfilter --enable-pthreads libavutil 52. 89.100 / 52. 89.100 libavcodec 55. 67.100 / 55. 67.100 libavformat 55. 43.100 / 55. 43.100 libavdevice 55. 13.101 / 55. 13.101 libavfilter 4. 8.100 / 4. 8.100 libswscale 2. 6.100 / 2. 6.100 libswresample 0. 19.100 / 0. 19.100 libpostproc 52. 3.100 / 52. 3.100 Trailing options were found on the commandline. Guessed Channel Layout for Input Stream #0.0 : stereo Input #0, s16le, from '/dev/zero': Duration: N/A, bitrate: 1536 kb/s Stream #0:0: Audio: pcm_s16le, 48000 Hz, 2 channels, s16, 1536 kb/s Input #1, mov,mp4,m4a,3gp,3g2,mj2, from '/home/finpic/public_html/mediahub/public/jobs/pack-426-legacy/intro_800x450.mp4': Metadata: major_brand : isom minor_version : 512 compatible_brands: isomiso2avc1mp41 encoder : Lavf55.16.101 Duration: 00:00:03.46, start: 0.000000, bitrate: 63 kb/s Stream #1:0(eng): Video: h264 (High) (avc1 / 0x31637661), yuv420p, 800x450 [SAR 15:16 DAR 5:3], 51 kb/s, 24 fps, 24 tbr, 12288 tbn, 48 tbc (default) Metadata: handler_name : VideoHandler Stream #1:1(eng): Audio: aac (mp4a / 0x6134706D), 44100 Hz, stereo, fltp, 3 kb/s (default) Metadata: handler_name : SoundHandler [libx264 @ 0x2bc7be0] using SAR=15/16 [libx264 @ 0x2bc7be0] using cpu capabilities: MMX2 SSE2Fast SSSE3 SSE4.2 AVX [libx264 @ 0x2bc7be0] profile High, level 3.1 [libx264 @ 0x2bc7be0] 264 - core 142 - H.264/MPEG-4 AVC codec - Copyleft 2003-2014 - http://www.videolan.org/x264.html - options: cabac=1 ref=3 deblock=1:0:0 analyse=0x3:0x113 me=hex subme=7 psy=1 psy_rd=1.00:0.00 mixed_ref=1 me_range=16 chroma_me=1 trellis=1 8x8dct=1 cqm=0 deadzone=21,11 fast_pskip=1 chroma_qp_offset=-2 threads=2 lookahead_threads=1 sliced_threads=0 nr=0 decimate=1 interlaced=0 bluray_compat=0 constrained_intra=0 bframes=3 b_pyramid=2 b_adapt=1 b_bias=0 direct=1 weightb=1 open_gop=0 weightp=2 keyint=250 keyint_min=25 scenecut=40 intra_refresh=0 rc_lookahead=40 rc=crf mbtree=1 crf=22.0 qcomp=0.60 qpmin=0 qpmax=69 qpstep=4 ip_ratio=1.40 aq=1:1.00 Output #0, mp4, to '/home/finpic/public_html/mediahub/public/jobs/pack-426-legacy/intro_800x450_s.mp4': Metadata: encoder : Lavf55.43.100 Stream #0:0(eng): Video: h264 (libx264) ([33][0][0][0] / 0x0021), yuv420p, 800x450 [SAR 15:16 DAR 5:3], q=-1--1, 29.97 fps, 11988 tbn, 29.97 tbc (default) Metadata: handler_name : VideoHandler encoder : Lavc55.67.100 libx264 Stream #0:1: Audio: aac ([64][0][0][0] / 0x0040), 48000 Hz, stereo, fltp, 128 kb/s Metadata: encoder : Lavc55.67.100 aac Stream mapping: Stream #1:0 -> #0:0 (h264 (native) -> h264 (libx264)) Stream #0:0 -> #0:1 (pcm_s16le (native) -> aac (native)) Press [q] to stop, [?] for help frame= 103 fps=0.0 q=-1.0 Lsize= 30kB time=00:00:03.45 bitrate= 70.1kbits/s dup=20 drop=0 video:24kB audio:1kB subtitle:0kB other streams:0kB global headers:0kB muxing overhead: 20.279554% [libx264 @ 0x2bc7be0] frame I:1 Avg QP: 3.94 size: 122 [libx264 @ 0x2bc7be0] frame P:27 Avg QP:13.61 size: 692 [libx264 @ 0x2bc7be0] frame B:75 Avg QP:15.44 size: 63 [libx264 @ 0x2bc7be0] consecutive B-frames: 2.9% 0.0% 0.0% 97.1% [libx264 @ 0x2bc7be0] mb I I16..4: 100.0% 0.0% 0.0% [libx264 @ 0x2bc7be0] mb P I16..4: 0.2% 0.1% 0.5% P16..4: 1.4% 0.3% 0.2% 0.0% 0.0% skip:97.3% [libx264 @ 0x2bc7be0] mb B I16..4: 0.0% 0.0% 0.0% B16..8: 1.0% 0.1% 0.0% direct: 0.0% skip:98.9% L0:38.1% L1:49.8% BI:12.1% [libx264 @ 0x2bc7be0] 8x8 transform intra:1.5% inter:40.2% [libx264 @ 0x2bc7be0] coded y,uvDC,uvAC intra: 9.9% 10.4% 5.0% inter: 0.2% 0.3% 0.1% [libx264 @ 0x2bc7be0] i16 v,h,dc,p: 94% 2% 4% 0% [libx264 @ 0x2bc7be0] i8 v,h,dc,ddl,ddr,vr,hd,vl,hu: 22% 6% 46% 1% 2% 6% 4% 8% 5% [libx264 @ 0x2bc7be0] i4 v,h,dc,ddl,ddr,vr,hd,vl,hu: 30% 20% 26% 4% 5% 4% 5% 3% 4% [libx264 @ 0x2bc7be0] i8c dc,h,v,p: 92% 4% 4% 0% [libx264 @ 0x2bc7be0] Weighted P-Frames: Y:7.4% UV:7.4% [libx264 @ 0x2bc7be0] ref P L0: 74.9% 17.3% 5.0% 2.8% [libx264 @ 0x2bc7be0] ref B L0: 90.3% 8.4% 1.3% [libx264 @ 0x2bc7be0] ref B L1: 99.2% 0.8% [libx264 @ 0x2bc7be0] kb/s:54.73 ffmpeg version N-64015-g92cccb7 Copyright (c) 2000-2014 the FFmpeg developers built on Jun 17 2014 09:05:09 with gcc 4.4.7 (GCC) 20120313 (Red Hat 4.4.7-4) configuration: --prefix=/root/ffmpeg_build --extra-cflags=-I/root/ffmpeg_build/include --extra-ldflags=-L/root/ffmpeg_build/lib --bindir=/usr/bin --extra-libs=-ldl --enable-version3 --enable-libopencore-amrnb --enable-libopencore-amrwb --enable-libvpx --enable-libfaac --enable-libmp3lame --enable-libtheora --enable-libvorbis --enable-libx264 --enable-libvo-aacenc --enable-libxvid --disable-ffplay --enable-gpl --enable-postproc --enable-nonfree --enable-avfilter --enable-pthreads WARNING: library configuration mismatch swscale configuration: --prefix=/root/ffmpeg_build --extra-cflags=-I/root/ffmpeg_build/include --extra-ldflags=-L/root/ffmpeg_build/lib --bindir=/root/bin --extra-libs=-ldl --enable-version3 --enable-libopencore-amrnb --enable-libopencore-amrwb --enable-libvpx --enable-libfaac --enable-libmp3lame --enable-libtheora --enable-libvorbis --enable-libx264 --enable-libvo-aacenc --enable-libxvid --disable-ffplay --enable-gpl --enable-postproc --enable-nonfree --enable-avfilter --enable-pthreads swresample configuration: --prefix=/root/ffmpeg_build --extra-cflags=-I/root/ffmpeg_build/include --extra-ldflags=-L/root/ffmpeg_build/lib --bindir=/root/bin --extra-libs=-ldl --enable-version3 --enable-libopencore-amrnb --enable-libopencore-amrwb --enable-libvpx --enable-libfaac --enable-libmp3lame --enable-libtheora --enable-libvorbis --enable-libx264 --enable-libvo-aacenc --enable-libxvid --disable-ffplay --enable-gpl --enable-postproc --enable-nonfree --enable-avfilter --enable-pthreads libavutil 52. 89.100 / 52. 89.100 libavcodec 55. 67.100 / 55. 67.100 libavformat 55. 43.100 / 55. 43.100 libavdevice 55. 13.101 / 55. 13.101 libavfilter 4. 8.100 / 4. 8.100 libswscale 2. 6.100 / 2. 6.100 libswresample 0. 19.100 / 0. 19.100 libpostproc 52. 3.100 / 52. 3.100 Trailing options were found on the commandline. Guessed Channel Layout for Input Stream #0.0 : stereo Input #0, s16le, from '/dev/zero': Duration: N/A, bitrate: 1536 kb/s Stream #0:0: Audio: pcm_s16le, 48000 Hz, 2 channels, s16, 1536 kb/s Input #1, mov,mp4,m4a,3gp,3g2,mj2, from '/home/finpic/public_html/mediahub/public/jobs/pack-426-legacy/intro.mp4': Metadata: major_brand : isom minor_version : 512 compatible_brands: isomiso2avc1mp41 creation_time : 1970-01-01 00:00:00 encoder : Lavf53.24.2 Duration: 00:00:03.46, start: 0.000000, bitrate: 514 kb/s Stream #1:0(eng): Video: h264 (Main) (avc1 / 0x31637661), yuv420p, 1000x600 [SAR 1:1 DAR 5:3], 503 kb/s, 24 fps, 24 tbr, 24024 tbn, 48 tbc (default) Metadata: creation_time : 1970-01-01 00:00:00 handler_name : VideoHandler Stream #1:1(eng): Audio: aac (mp4a / 0x6134706D), 44100 Hz, stereo, fltp, 3 kb/s (default) Metadata: creation_time : 1970-01-01 00:00:00 handler_name : SoundHandler [libx264 @ 0x3460140] using SAR=1/1 [libx264 @ 0x3460140] using cpu capabilities: MMX2 SSE2Fast SSSE3 SSE4.2 AVX [libx264 @ 0x3460140] profile High, level 3.1 [libx264 @ 0x3460140] 264 - core 142 - H.264/MPEG-4 AVC codec - Copyleft 2003-2014 - http://www.videolan.org/x264.html - options: cabac=1 ref=3 deblock=1:0:0 analyse=0x3:0x113 me=hex subme=7 psy=1 psy_rd=1.00:0.00 mixed_ref=1 me_range=16 chroma_me=1 trellis=1 8x8dct=1 cqm=0 deadzone=21,11 fast_pskip=1 chroma_qp_offset=-2 threads=2 lookahead_threads=1 sliced_threads=0 nr=0 decimate=1 interlaced=0 bluray_compat=0 constrained_intra=0 bframes=3 b_pyramid=2 b_adapt=1 b_bias=0 direct=1 weightb=1 open_gop=0 weightp=2 keyint=250 keyint_min=25 scenecut=40 intra_refresh=0 rc_lookahead=40 rc=crf mbtree=1 crf=22.0 qcomp=0.60 qpmin=0 qpmax=69 qpstep=4 ip_ratio=1.40 aq=1:1.00 Output #0, mp4, to '/home/finpic/public_html/mediahub/public/jobs/pack-426-legacy/intro_1280x720_s.mp4': Metadata: encoder : Lavf55.43.100 Stream #0:0(eng): Video: h264 (libx264) ([33][0][0][0] / 0x0021), yuv420p, 1000x600 [SAR 1:1 DAR 5:3], q=-1--1, 29.97 fps, 11988 tbn, 29.97 tbc (default) Metadata: creation_time : 1970-01-01 00:00:00 handler_name : VideoHandler encoder : Lavc55.67.100 libx264 Stream #0:1: Audio: aac ([64][0][0][0] / 0x0040), 48000 Hz, stereo, fltp, 128 kb/s Metadata: encoder : Lavc55.67.100 aac Stream mapping: Stream #1:0 -> #0:0 (h264 (native) -> h264 (libx264)) Stream #0:0 -> #0:1 (pcm_s16le (native) -> aac (native)) Press [q] to stop, [?] for help frame= 103 fps=0.0 q=-1.0 Lsize= 42kB time=00:00:03.45 bitrate= 99.2kbits/s dup=20 drop=0 video:36kB audio:1kB subtitle:0kB other streams:0kB global headers:0kB muxing overhead: 13.478146% [libx264 @ 0x3460140] frame I:1 Avg QP: 3.75 size: 169 [libx264 @ 0x3460140] frame P:27 Avg QP:13.77 size: 1068 [libx264 @ 0x3460140] frame B:75 Avg QP:15.65 size: 94 [libx264 @ 0x3460140] consecutive B-frames: 2.9% 0.0% 0.0% 97.1% [libx264 @ 0x3460140] mb I I16..4: 100.0% 0.0% 0.0% [libx264 @ 0x3460140] mb P I16..4: 0.2% 0.1% 0.5% P16..4: 1.2% 0.3% 0.2% 0.0% 0.0% skip:97.5% [libx264 @ 0x3460140] mb B I16..4: 0.0% 0.0% 0.0% B16..8: 0.9% 0.1% 0.0% direct: 0.0% skip:98.9% L0:38.4% L1:50.9% BI:10.7% [libx264 @ 0x3460140] 8x8 transform intra:3.6% inter:32.2% [libx264 @ 0x3460140] coded y,uvDC,uvAC intra: 9.7% 12.9% 8.2% inter: 0.2% 0.3% 0.1% [libx264 @ 0x3460140] i16 v,h,dc,p: 95% 3% 3% 0% [libx264 @ 0x3460140] i8 v,h,dc,ddl,ddr,vr,hd,vl,hu: 18% 13% 59% 2% 1% 1% 2% 1% 3% [libx264 @ 0x3460140] i4 v,h,dc,ddl,ddr,vr,hd,vl,hu: 35% 21% 23% 4% 4% 4% 4% 2% 4% [libx264 @ 0x3460140] i8c dc,h,v,p: 88% 5% 6% 0% [libx264 @ 0x3460140] Weighted P-Frames: Y:7.4% UV:3.7% [libx264 @ 0x3460140] ref P L0: 77.3% 14.0% 5.9% 2.7% [libx264 @ 0x3460140] ref B L0: 87.1% 11.3% 1.7% [libx264 @ 0x3460140] ref B L1: 96.7% 3.3% [libx264 @ 0x3460140] kb/s:83.99 ffmpeg version N-64015-g92cccb7 Copyright (c) 2000-2014 the FFmpeg developers built on Jun 17 2014 09:05:09 with gcc 4.4.7 (GCC) 20120313 (Red Hat 4.4.7-4) configuration: --prefix=/root/ffmpeg_build --extra-cflags=-I/root/ffmpeg_build/include --extra-ldflags=-L/root/ffmpeg_build/lib --bindir=/usr/bin --extra-libs=-ldl --enable-version3 --enable-libopencore-amrnb --enable-libopencore-amrwb --enable-libvpx --enable-libfaac --enable-libmp3lame --enable-libtheora --enable-libvorbis --enable-libx264 --enable-libvo-aacenc --enable-libxvid --disable-ffplay --enable-gpl --enable-postproc --enable-nonfree --enable-avfilter --enable-pthreads WARNING: library configuration mismatch swscale configuration: --prefix=/root/ffmpeg_build --extra-cflags=-I/root/ffmpeg_build/include --extra-ldflags=-L/root/ffmpeg_build/lib --bindir=/root/bin --extra-libs=-ldl --enable-version3 --enable-libopencore-amrnb --enable-libopencore-amrwb --enable-libvpx --enable-libfaac --enable-libmp3lame --enable-libtheora --enable-libvorbis --enable-libx264 --enable-libvo-aacenc --enable-libxvid --disable-ffplay --enable-gpl --enable-postproc --enable-nonfree --enable-avfilter --enable-pthreads swresample configuration: --prefix=/root/ffmpeg_build --extra-cflags=-I/root/ffmpeg_build/include --extra-ldflags=-L/root/ffmpeg_build/lib --bindir=/root/bin --extra-libs=-ldl --enable-version3 --enable-libopencore-amrnb --enable-libopencore-amrwb --enable-libvpx --enable-libfaac --enable-libmp3lame --enable-libtheora --enable-libvorbis --enable-libx264 --enable-libvo-aacenc --enable-libxvid --disable-ffplay --enable-gpl --enable-postproc --enable-nonfree --enable-avfilter --enable-pthreads libavutil 52. 89.100 / 52. 89.100 libavcodec 55. 67.100 / 55. 67.100 libavformat 55. 43.100 / 55. 43.100 libavdevice 55. 13.101 / 55. 13.101 libavfilter 4. 8.100 / 4. 8.100 libswscale 2. 6.100 / 2. 6.100 libswresample 0. 19.100 / 0. 19.100 libpostproc 52. 3.100 / 52. 3.100 Trailing options were found on the commandline. Guessed Channel Layout for Input Stream #0.0 : stereo Input #0, s16le, from '/dev/zero': Duration: N/A, bitrate: 1536 kb/s Stream #0:0: Audio: pcm_s16le, 48000 Hz, 2 channels, s16, 1536 kb/s Input #1, mov,mp4,m4a,3gp,3g2,mj2, from '/home/finpic/public_html/mediahub/public/jobs/pack-426-legacy/intro_640x360.mp4': Metadata: major_brand : isom minor_version : 512 compatible_brands: isomiso2avc1mp41 encoder : Lavf55.16.101 Duration: 00:00:03.46, start: 0.000000, bitrate: 53 kb/s Stream #1:0(eng): Video: h264 (High) (avc1 / 0x31637661), yuv420p, 640x360 [SAR 15:16 DAR 5:3], 41 kb/s, 24 fps, 24 tbr, 12288 tbn, 48 tbc (default) Metadata: handler_name : VideoHandler Stream #1:1(eng): Audio: aac (mp4a / 0x6134706D), 44100 Hz, stereo, fltp, 3 kb/s (default) Metadata: handler_name : SoundHandler [libx264 @ 0x3d94be0] using SAR=15/16 [libx264 @ 0x3d94be0] using cpu capabilities: MMX2 SSE2Fast SSSE3 SSE4.2 AVX [libx264 @ 0x3d94be0] profile High, level 3.0 [libx264 @ 0x3d94be0] 264 - core 142 - H.264/MPEG-4 AVC codec - Copyleft 2003-2014 - http://www.videolan.org/x264.html - options: cabac=1 ref=3 deblock=1:0:0 analyse=0x3:0x113 me=hex subme=7 psy=1 psy_rd=1.00:0.00 mixed_ref=1 me_range=16 chroma_me=1 trellis=1 8x8dct=1 cqm=0 deadzone=21,11 fast_pskip=1 chroma_qp_offset=-2 threads=2 lookahead_threads=1 sliced_threads=0 nr=0 decimate=1 interlaced=0 bluray_compat=0 constrained_intra=0 bframes=3 b_pyramid=2 b_adapt=1 b_bias=0 direct=1 weightb=1 open_gop=0 weightp=2 keyint=250 keyint_min=25 scenecut=40 intra_refresh=0 rc_lookahead=40 rc=crf mbtree=1 crf=22.0 qcomp=0.60 qpmin=0 qpmax=69 qpstep=4 ip_ratio=1.40 aq=1:1.00 Output #0, mp4, to '/home/finpic/public_html/mediahub/public/jobs/pack-426-legacy/intro_640x360_s.mp4': Metadata: encoder : Lavf55.43.100 Stream #0:0(eng): Video: h264 (libx264) ([33][0][0][0] / 0x0021), yuv420p, 640x360 [SAR 15:16 DAR 5:3], q=-1--1, 29.97 fps, 11988 tbn, 29.97 tbc (default) Metadata: handler_name : VideoHandler encoder : Lavc55.67.100 libx264 Stream #0:1: Audio: aac ([64][0][0][0] / 0x0040), 48000 Hz, stereo, fltp, 128 kb/s Metadata: encoder : Lavc55.67.100 aac Stream mapping: Stream #1:0 -> #0:0 (h264 (native) -> h264 (libx264)) Stream #0:0 -> #0:1 (pcm_s16le (native) -> aac (native)) Press [q] to stop, [?] for help frame= 103 fps=0.0 q=-1.0 Lsize= 25kB time=00:00:03.45 bitrate= 58.7kbits/s dup=20 drop=0 video:19kB audio:1kB subtitle:0kB other streams:0kB global headers:0kB muxing overhead: 25.219753% [libx264 @ 0x3d94be0] frame I:1 Avg QP: 5.14 size: 95 [libx264 @ 0x3d94be0] frame P:27 Avg QP:14.21 size: 540 [libx264 @ 0x3d94be0] frame B:75 Avg QP:15.09 size: 52 [libx264 @ 0x3d94be0] consecutive B-frames: 2.9% 0.0% 0.0% 97.1% [libx264 @ 0x3d94be0] mb I I16..4: 100.0% 0.0% 0.0% [libx264 @ 0x3d94be0] mb P I16..4: 0.1% 0.2% 0.6% P16..4: 1.5% 0.4% 0.2% 0.0% 0.0% skip:97.0% [libx264 @ 0x3d94be0] mb B I16..4: 0.0% 0.0% 0.0% B16..8: 1.4% 0.1% 0.0% direct: 0.0% skip:98.4% L0:41.9% L1:49.2% BI: 8.9% [libx264 @ 0x3d94be0] 8x8 transform intra:3.9% inter:33.6% [libx264 @ 0x3d94be0] coded y,uvDC,uvAC intra: 10.3% 9.5% 5.2% inter: 0.3% 0.3% 0.2% [libx264 @ 0x3d94be0] i16 v,h,dc,p: 94% 2% 4% 0% [libx264 @ 0x3d94be0] i8 v,h,dc,ddl,ddr,vr,hd,vl,hu: 7% 11% 67% 0% 1% 2% 4% 1% 8% [libx264 @ 0x3d94be0] i4 v,h,dc,ddl,ddr,vr,hd,vl,hu: 30% 20% 25% 4% 6% 4% 5% 3% 4% [libx264 @ 0x3d94be0] i8c dc,h,v,p: 91% 5% 3% 0% [libx264 @ 0x3d94be0] Weighted P-Frames: Y:7.4% UV:0.0% [libx264 @ 0x3d94be0] ref P L0: 68.5% 19.1% 6.4% 5.8% 0.2% [libx264 @ 0x3d94be0] ref B L0: 82.2% 15.8% 2.1% [libx264 @ 0x3d94be0] ref B L1: 95.7% 4.3% [libx264 @ 0x3d94be0] kb/s:43.25